开启辅助访问 天气与日历 收藏本站

数字音乐论坛

 找回密码
 立即注册
快捷导航
查看: 3453|回复: 39

[原创] [我多想唱--劲歌联唱3][APE/CUE/312MB][百度盘]

[复制链接] TA的其它主题
  • TA的每日心情
    难过
    5 小时前
  • 签到天数: 330 天

    [LV.8]以坛为家I

    升级   100%

    22

    主题

    743

    帖子

    9935

    积分

    版主

    Rank: 7Rank: 7Rank: 7

    斑竹专用勋章

    鲜花(6) 鸡蛋(0)
    发表于 2020-5-16 20:45:01 | 显示全部楼层 |阅读模式
    本帖最后由 风雨兼程 于 2020-8-16 02:00 编辑

    封面(changfan123精修)副本.jpg
    包里有无水印封面高清扫描四大图

    封面扫描:四季歌
    封面精修:changfan123
    感谢两位大锅!

    索尼TC-KA7ES,倍频高采低转
    整轨联唱强行做了CUE,请勿分割
    风雨兼程 2020.05.16

    我多想唱--劲歌联唱3

    发行时间:1986年
    出版编号:华都FAL-8
    中国唱片公司北京分公司出版发行

    编辑:王苑珠
    录音:张小安
    封面摄影:闵强
    封面设计:刘旭光

    A面:
    01.我多想唱(李玲玉)

    02.唱吧!朋友(屠洪刚)
    03.那该是个怎样的世界(毛阿敏)
    04.我知道(赵莉)
    05.生活的节奏(于佳易)
    06.雨中行(王小芳)
    07.趁今天是星期日(屠洪刚)
    08.不要停留你的脚步(李玲玉)
    09.假如(于露)
    10.是谁带来春雨(李玲玉)

    B面:
    11.燕子飞飞(屠洪刚)
    12.风儿告诉我(李玲玉)
    13.姑娘你今年满十八(王小芳)
    14.晚风(王小芳)
    15.真心帮助你(屠洪刚)
    16.爱似人间比翼鸟(王小芳)
    17.知更鸟(王小芳)
    18.给予(张青)
    19.远足(王小芳)
    20.春光美(赵莉)
    游客,如果您要查看本帖隐藏内容请回复





    我多想唱--劲歌联唱3 解压密码.txt

    16 Bytes, 下载次数: 27

    售价: 26 金币  [记录]

    评分

    参与人数 1威望 +8 金币 +16 贡献 +8 收起 理由
    四季歌 + 8 + 16 + 8 很给力!

    查看全部评分

    回复 鲜花(6) 鸡蛋(0)

    使用道具 举报

  • TA的每日心情
    难过
    5 小时前
  • 签到天数: 330 天

    [LV.8]以坛为家I

    升级   100%

    22

    主题

    743

    帖子

    9935

    积分

    版主

    Rank: 7Rank: 7Rank: 7

    斑竹专用勋章

    鲜花(6) 鸡蛋(0)
     楼主| 发表于 2020-5-16 21:38:35 | 显示全部楼层
    TITLE "我多想唱--劲歌联唱3"
    FILE "我多想唱--劲歌联唱3.ape" WAVE
      TRACK 01 AUDIO
        INDEX 01 00:00:00
        TITLE "我多想唱"
        PERFORMER "李玲玉"
        REM GENRE Pop
        REM DATE 1986
        REM COMMENT 风雨兼程 2020年5月14日
      TRACK 02 AUDIO
        INDEX 01 02:53:72
        TITLE "唱吧!朋友"
        PERFORMER "屠洪刚"
        REM GENRE Pop
        REM DATE 1986
        REM COMMENT 风雨兼程 2020年5月14日
      TRACK 03 AUDIO
        INDEX 01 05:39:30
        TITLE "那该是个怎样的世界"
        PERFORMER "毛阿敏"
        REM GENRE Pop
        REM DATE 1986
        REM COMMENT 风雨兼程 2020年5月14日
      TRACK 04 AUDIO
        INDEX 01 07:09:42
        TITLE "我知道"
        PERFORMER "赵  莉"
        REM GENRE Pop
        REM DATE 1986
        REM COMMENT 风雨兼程 2020年5月14日
      TRACK 05 AUDIO
        INDEX 01 09:12:00
        TITLE "生活的节奏"
        PERFORMER "于佳易"
        REM GENRE Pop
        REM DATE 1986
        REM COMMENT 风雨兼程 2020年5月14日
      TRACK 06 AUDIO
        INDEX 01 11:42:09
        TITLE "雨中行"
        PERFORMER "王小芳"
        REM GENRE Pop
        REM DATE 1986
        REM COMMENT 风雨兼程 2020年5月14日
      TRACK 07 AUDIO
        INDEX 01 14:20:57
        TITLE "趁今天是星期日"
        PERFORMER "屠洪刚"
        REM GENRE Pop
        REM DATE 1986
        REM COMMENT 风雨兼程 2020年5月14日
      TRACK 08 AUDIO
        INDEX 01 16:32:33
        TITLE "不要停留你的脚步"
        PERFORMER "李玲玉"
        REM GENRE Pop
        REM DATE 1986
        REM COMMENT 风雨兼程 2020年5月14日
      TRACK 09 AUDIO
        INDEX 01 19:32:21
        TITLE "假如"
        PERFORMER "于  露"
        REM GENRE Pop
        REM DATE 1986
        REM COMMENT 风雨兼程 2020年5月14日
      TRACK 10 AUDIO
        INDEX 01 21:39:21
        TITLE "是谁带来春雨"
        PERFORMER "李玲玉"
        REM GENRE Pop
        REM DATE 1986
        REM COMMENT 风雨兼程 2020年5月14日
      TRACK 11 AUDIO
        INDEX 01 24:39:00
        TITLE "燕子飞飞"
        PERFORMER "屠洪刚"
        REM GENRE Pop
        REM DATE 1986
        REM COMMENT 风雨兼程 2020年5月14日
      TRACK 12 AUDIO
        INDEX 01 26:37:09
        TITLE "风儿告诉我"
        PERFORMER "李玲玉"
        REM GENRE Pop
        REM DATE 1986
        REM COMMENT 风雨兼程 2020年5月14日
      TRACK 13 AUDIO
        INDEX 01 29:23:51
        TITLE "姑娘你今年满十八"
        PERFORMER "王小芳"
        REM GENRE Pop
        REM DATE 1986
        REM COMMENT 风雨兼程 2020年5月14日
      TRACK 14 AUDIO
        INDEX 01 32:21:30
        TITLE "晚风"
        PERFORMER "王小芳"
        REM GENRE Pop
        REM DATE 1986
        REM COMMENT 风雨兼程 2020年5月14日
      TRACK 15 AUDIO
        INDEX 01 34:48:30
        TITLE "真心帮助你"
        PERFORMER "屠洪刚"
        REM GENRE Pop
        REM DATE 1986
        REM COMMENT 风雨兼程 2020年5月14日
      TRACK 16 AUDIO
        INDEX 01 36:17:40
        TITLE "爱似人间比翼鸟"
        PERFORMER "王小芳"
        REM GENRE Pop
        REM DATE 1986
        REM COMMENT 风雨兼程 2020年5月14日
      TRACK 17 AUDIO
        INDEX 01 38:36:24
        TITLE "知更鸟"
        PERFORMER "王小芳"
        REM GENRE Pop
        REM DATE 1986
        REM COMMENT 风雨兼程 2020年5月14日
      TRACK 18 AUDIO
        INDEX 01 41:09:16.5
        TITLE "给予"
        PERFORMER "张  青"
        REM GENRE Pop
        REM DATE 1986
        REM COMMENT 风雨兼程 2020年5月14日
      TRACK 19 AUDIO
        INDEX 01 43:10:54
        TITLE "远足"
        PERFORMER "王小芳"
        REM GENRE Pop
        REM DATE 1986
        REM COMMENT 风雨兼程 2020年5月14日
      TRACK 20 AUDIO
        INDEX 01 44:54:49.5
        TITLE "春光美"
        PERFORMER "赵  莉"
        REM GENRE Pop
        REM DATE 1986
        REM COMMENT 风雨兼程 2020年5月14日
    回复 鲜花(6) 鸡蛋(0)

    使用道具 举报

  • TA的每日心情
    无聊
    昨天 09:35
  • 签到天数: 322 天

    [LV.8]以坛为家I

    升级   0%

    60

    主题

    2225

    帖子

    1万

    积分

    论坛元老

    Rank: 8Rank: 8

    发帖高手勋章

    鲜花(0) 鸡蛋(0)
    发表于 2020-5-16 21:35:04 | 显示全部楼层
    制作精良,音质棒棒哒!
    回复 鲜花(0) 鸡蛋(0)

    使用道具 举报

  • TA的每日心情
    奋斗
    5 小时前
  • 签到天数: 326 天

    [LV.8]以坛为家I

    升级   93.3%

    13

    主题

    2378

    帖子

    6732

    积分

    中级会员

    Rank: 3Rank: 3

    鲜花(0) 鸡蛋(0)
    发表于 2020-5-16 22:37:37 | 显示全部楼层
    几位知名的红星,多想唱,歌迷们就多想听。感谢分享早期劲歌联唱
    回复 鲜花(0) 鸡蛋(0)

    使用道具 举报

  • TA的每日心情
    奋斗
    5 小时前
  • 签到天数: 272 天

    [LV.8]以坛为家I

    升级   41.88%

    23

    主题

    1442

    帖子

    4675

    积分

    中级会员

    Rank: 3Rank: 3

    鲜花(0) 鸡蛋(0)
    发表于 2020-5-17 07:50:21 | 显示全部楼层
    喜欢那首于佳易的生活的节奏
    回复 鲜花(0) 鸡蛋(0)

    使用道具 举报

  • TA的每日心情
    慵懒
    2020-10-18 15:53
  • 签到天数: 166 天

    [LV.7]常住居民III

    升级   100%

    3

    主题

    2036

    帖子

    4429

    积分

    禁止访问

    鲜花(0) 鸡蛋(0)
    发表于 2020-5-17 09:45:36 | 显示全部楼层
    李玲玉的我多想唱很好听,毛阿敏的试听曲我更喜欢孙青演唱的版本。
    回复 鲜花(0) 鸡蛋(0)

    使用道具 举报

  • TA的每日心情
    无聊
    昨天 13:40
  • 签到天数: 253 天

    [LV.8]以坛为家I

    升级   79.6%

    6

    主题

    1478

    帖子

    6184

    积分

    中级会员

    Rank: 3Rank: 3

    鲜花(0) 鸡蛋(0)
    发表于 2020-5-17 09:54:26 | 显示全部楼层
    风雨兼程 发表于 2020-5-16 21:38
    TITLE "我多想唱--劲歌联唱3"
    FILE "我多想唱--劲歌联唱3.ape" WAVE
      TRACK 01 AUDIO

    联唱歌曲,也制作了优质的CUE文件,可见认真的态度。谢谢风雨兼程!

    点评

    谢谢这位不认识的朋友的认可,听到这样的话,心里面暖暖的,,,  发表于 2020-5-17 17:42
    回复 鲜花(0) 鸡蛋(0)

    使用道具 举报

  • TA的每日心情

    昨天 22:34
  • 签到天数: 313 天

    [LV.8]以坛为家I

    升级   2.1%

    2

    主题

    1059

    帖子

    2021

    积分

    注册会员

    Rank: 2

    鲜花(0) 鸡蛋(0)
    发表于 2020-5-17 10:10:19 | 显示全部楼层
    试听曲《我多想唱》,感觉李玲玉比原唱苏红唱的还要好,这个版本也是第一次听到!回到了初二的时候!感谢楼主~
    回复 鲜花(0) 鸡蛋(0)

    使用道具 举报

  • TA的每日心情
    难过
    2021-2-17 10:00
  • 签到天数: 108 天

    [LV.6]常住居民II

    升级   100%

    57

    主题

    1136

    帖子

    1万

    积分

    贵宾

    Rank: 5Rank: 5

    鲜花(3) 鸡蛋(0)
    发表于 2020-5-17 10:48:04 | 显示全部楼层
    有大图,有诚意。分享能尽量做到资料齐全还是很带劲的。谢谢。
    回复 鲜花(3) 鸡蛋(0)

    使用道具 举报

  • TA的每日心情
    慵懒
    3 天前
  • 签到天数: 262 天

    [LV.8]以坛为家I

    升级   25.6%

    3

    主题

    1873

    帖子

    4024

    积分

    中级会员

    Rank: 3Rank: 3

    鲜花(0) 鸡蛋(0)
    发表于 2020-5-17 11:12:36 | 显示全部楼层
    录制一盘磁带这么多歌星也是非常不易,谢谢分享!!!
    回复 鲜花(0) 鸡蛋(0)

    使用道具 举报

    您需要登录后才可以回帖 登录 | 立即注册

    本版积分规则

    Archiver|小黑屋|移动版|数字音乐论坛 ( 津ICP备09009336号-1 )

    GMT+8, 2021-3-1 05:40 , Processed in 1.187500 second(s), 68 queries .

    Powered by Discuz! X3.4 Licensed

    © 2008-2020 上网要文明 发言要理性 本站禁灌水

    快速回复 返回顶部 返回列表