开启辅助访问 收藏本站

数字音乐论坛

 找回密码
 立即注册
快捷导航
查看: 4387|回复: 50

[原创] [10年金曲’88金星(第三集)][WAV/419MB][百度]

[复制链接] TA的其它主题
  • TA的每日心情

    2020-8-2 07:32
  • 签到天数: 27 天

    [LV.4]偶尔看看III

    升级   15.13%

    52

    主题

    1234

    帖子

    8727

    积分

    金牌会员

    Rank: 6Rank: 6

    积分
    8727
    威望
    1608
    金币
    3906
    贡献
    371
    发表于 2017-12-9 16:06:06 | 显示全部楼层 |阅读模式
    本帖最后由 WSAN 于 2017-12-9 17:46 编辑

    专辑;10年金曲’88金星
    出版;国际文化交流音像出版社
    编号;LAM88025
    时间;1988
    格式;磁带-WAV
    大小;419MB
    链接;
    游客,如果您要查看本帖隐藏内容请回复

    密码; 密码 (2).rar (150 Bytes, 下载次数: 51, 售价: 10 金币)

    评分

    参与人数 1金币 +16 收起 理由
    WSAN + 16 赞一个!

    查看全部评分

    回复

    使用道具 举报

  • TA的每日心情

    2020-8-2 07:32
  • 签到天数: 27 天

    [LV.4]偶尔看看III

    升级   15.13%

    52

    主题

    1234

    帖子

    8727

    积分

    金牌会员

    Rank: 6Rank: 6

    积分
    8727
    威望
    1608
    金币
    3906
    贡献
    371
     楼主| 发表于 2017-12-9 16:10:15 | 显示全部楼层
    IMG_20171123_0004.jpg IMG_20171123_0005.jpg
    IMG_20171209_0010_NEW.jpg
    IMG_20171209_0008_NEW.jpg



    回复

    使用道具 举报

  • TA的每日心情
    郁闷
    12 小时前
  • 签到天数: 120 天

    [LV.7]常住居民III

    升级   100%

    16

    主题

    1788

    帖子

    4326

    积分

    贵宾

    Rank: 5Rank: 5

    积分
    4326
    威望
    1102
    金币
    226
    贡献
    108
    发表于 2017-12-9 16:33:20 | 显示全部楼层
    这个10年金曲好像有三辑,感谢制作,期待分享其他2个专辑。
    回复

    使用道具 举报

  • TA的每日心情

    2020-5-17 20:50
  • 签到天数: 1 天

    [LV.1]初来乍到

    升级   15.55%

    4

    主题

    89

    帖子

    311

    积分

    新手上路

    Rank: 1

    积分
    311
    威望
    79
    金币
    55
    贡献
    9
    发表于 2017-12-9 17:08:07 | 显示全部楼层
    原来那英还唱过《祖国赞美诗》。:)
    回复

    使用道具 举报

    该用户从未签到

    升级   100%

    3

    主题

    428

    帖子

    1198

    积分

    禁止访问

    积分
    1198
    威望
    375
    金币
    20
    贡献
    0
    发表于 2017-12-9 17:11:59 | 显示全部楼层
    提示: 作者被禁止或删除 内容自动屏蔽
    回复

    使用道具 举报

  • TA的每日心情
    奋斗
    2020-7-25 22:42
  • 签到天数: 20 天

    [LV.4]偶尔看看III

    升级   0%

    43

    主题

    481

    帖子

    1万

    积分

    论坛元老

    Rank: 8Rank: 8

    积分
    11874
    威望
    1055
    金币
    8901
    贡献
    367

    发帖高手勋章

    发表于 2017-12-9 17:14:38 | 显示全部楼层
    这盒磁带的确还没有见过,这熟悉的旋律唤起许多美好回忆
    回复

    使用道具 举报

  • TA的每日心情
    难过
    10 小时前
  • 签到天数: 134 天

    [LV.7]常住居民III

    升级   18.4%

    3

    主题

    1671

    帖子

    3736

    积分

    中级会员

    Rank: 3Rank: 3

    积分
    3736
    威望
    960
    金币
    135
    贡献
    10
    发表于 2017-12-9 17:19:56 | 显示全部楼层
    本帖最后由 retuiiipp 于 2017-12-9 18:05 编辑

    这盘10年金曲的贴图很漂亮,试听的音质也很好,谢谢分享!!!

    由于歌曲都比较熟悉,听过过后做了分割,供其他朋友参考。期待其他两集。

    REM DATE 1988
    TITLE "10年金曲’88金星(第三辑)"
    FILE "001.wav" WAVE
      TRACK 01 AUDIO
        TITLE "昨夜星辰"
        PERFORMER "韦唯"
        INDEX 01 00:00:00
      TRACK 02 AUDIO
        TITLE "小贝壳之恋"
        PERFORMER "叶灵"
        INDEX 01 02:44:00
      TRACK 03 AUDIO
        TITLE "十五的月亮十六圆"
        PERFORMER "黄勇"
        INDEX 01 06:27:00
      TRACK 04 AUDIO
        TITLE "一个美丽的传说"
        PERFORMER "郁钧剑"
        INDEX 01 09:12:00
      TRACK 05 AUDIO
        TITLE "莫妮卡"
        PERFORMER "王哲"
        INDEX 01 12:09:00
      TRACK 06 AUDIO
        TITLE "让世界充满爱"
        PERFORMER "合唱曲"
        INDEX 01 15:55:00
      TRACK 07 AUDIO
        TITLE "明天会更好"
        PERFORMER "刘欢&田震"
        INDEX 01 20:32:00
      TRACK 08 AUDIO
        TITLE "一无所有"
        PERFORMER "崔健"
        INDEX 01 24:53:00
      TRACK 09 AUDIO
        TITLE "妹妹曲"
        PERFORMER "孙国庆"
        INDEX 01 29:20:00
      TRACK 10 AUDIO
        TITLE "军港之夜"
        PERFORMER "胡晓晴"
        INDEX 01 32:27:00
      TRACK 11 AUDIO
        TITLE "祖国赞美诗"
        PERFORMER "那英"
        INDEX 01 35:26:00
      TRACK 12 AUDIO
        TITLE "啊!朋友"
        PERFORMER "男生四重唱"
        INDEX 01 38:36:00

    点评

    谢谢  发表于 2017-12-9 19:35
    回复

    使用道具 举报

  • TA的每日心情
    郁闷
    昨天 12:11
  • 签到天数: 129 天

    [LV.7]常住居民III

    升级   0%

    59

    主题

    1908

    帖子

    1万

    积分

    论坛元老

    Rank: 8Rank: 8

    积分
    11480
    威望
    2023
    金币
    4940
    贡献
    581

    发帖高手勋章

    发表于 2017-12-9 17:29:51 | 显示全部楼层
    很不错,制作不易,感谢分享!
    回复

    使用道具 举报

    该用户从未签到

    升级   100%

    1

    主题

    768

    帖子

    1917

    积分

    禁止访问

    积分
    1917
    威望
    561
    金币
    27
    贡献
    0
    发表于 2017-12-9 18:37:28 | 显示全部楼层
    提示: 作者被禁止或删除 内容自动屏蔽
    回复

    使用道具 举报

  • TA的每日心情
    奋斗
    2 小时前
  • 签到天数: 75 天

    [LV.6]常住居民II

    升级   25.23%

    1

    主题

    1301

    帖子

    4009

    积分

    中级会员

    Rank: 3Rank: 3

    积分
    4009
    威望
    779
    金币
    1150
    贡献
    0
    发表于 2017-12-9 18:46:12 | 显示全部楼层
    非常不错的专辑,里面的歌曲都很好听,谢谢分享。
    回复

    使用道具 举报

    您需要登录后才可以回帖 登录 | 立即注册

    本版积分规则

    Archiver|手机版|小黑屋|数字音乐论坛 ( 津ICP备09009336号-1 )

    GMT+8, 2020-8-10 19:20 , Processed in 0.453125 second(s), 45 queries .

    Powered by Discuz! X3.4 Licensed

    © 2008-2020 上网要文明 发言要理性 本站禁灌水

    快速回复 返回顶部 返回列表